HD-AREA wünscht Euch eine besinnliche Weihnachtszeit ;)

DNS SERVER AENDERNum der staatlichen Zensur zu umgehen. Sollten wir von eurem Provider geseprrt werden, nutzt den TOR BROWSER oder ändert euren DNS SERVER.

Filmwünsche können bei uns im Forum abgegeben werden

Wir Speichern Nicht




 
 
 
Top Releases
Hubert.und.Staller.-.Eine.sc...
Hotel.Transsilvanien.3.Ein.M...
The.Happy.Prince.2018.German...
The.Happy.Prince.2018.German...
Johnny.English.Man.lebt.nur....
Johnny.English.Man.lebt.nur....
The.Happy.Prince.2018.MULTi....
Von.Loewen.und.Laemmern.2007...
The.Hateful.8.2015.German.AC...
Der.Unsichtbare.Gast.2016.Ge...

Cinedubs
Johnny.English.Man.lebt.nur....
Johnny.English.Man.lebt.nur....
Johnny.English.Man.lebt.nur....
Phantastische.Tierwesen.Grin...
Phantastische.Tierwesen.Grin...
The.Guilty.2018.German.AC3D....
The.Guilty.2018.German.AC3D....
Aufbruch.zum.Mond.German.DL....
Aufbruch.zum.Mond.German.DL....
Night.School.2018.GERMAN.DL....

Neuerscheinungen 2017-18
Spinning.Man.Im.Dunkel.deine...
Spinning.Man.Im.Dunkel.deine...
They.Came.Together.2014.MULT...
The.Darkest.Minds.2018.MULTI...
Wer.war.Hitler.2017.GERMAN.D...
The.Nun.2018.MULTi.COMPLETE....
Meg.The.Meg.2018.MULTi.COMPL...
Ultimate.Justice.Toeten.oder...
Spinning.Man.Im.Dunkel.deine...
The.Crying.Game.1992.MULTi.C...

XXX
PlayboyPlus.18.12.11.Adel.Mo...
PervMom.18.10.11.Britney.Amb...
Only-Opaques.17.09.19.Jo.E.X...
Passion-HD.18.12.12.Hime.Mar...
PornMegaLoad.18.12.11.Gettin...
PervMom.18.10.25.Summer.Hart...
Only-Opaques.17.10.07.Natash...
PornMegaLoad.18.12.10.Karen....
PlumperPass.18.12.12.Danica....
PlayboyPlus.18.12.10.Anetta....
Only-Opaques.17.09.10.Daisy....
PervMom.18.09.25.Sovereign.S...
Only-Opaques.17.09.25.Cassie...
Penthouse.The.Art.Of.Seducti...
Orgasm.Ningyou.XXX.1080p.WEB...
PlumperPass.18.12.10.Angel.D...
Only-Opaques.17.10.24.Grace....
Only-Opaques.17.10.01.Nikki....
Only-Opaques.17.08.27.Lycia....
PornstarPlatinum.18.12.10.Jo...

3D
Meg.3D.2018.MULTi.COMPLETE.B...
Meg.3D.2018.German.DL.1080p....
Gans.im.Glueck.3D.2018.MULTi...
The.Art.of.Flight.3D.2011.Ge...
The.End.Of.The.World.3D.2010...
The.First.Avenger.Civil.War....
Die.Unglaublichen.2.2018.3D....
Skyscraper.3D.2018.MULTi.COM...
Ant-Man.And.The.Wasp.3D.2018...
Ant.Man.and.the.Wasp.3D.2018...
Die.Unglaublichen.2.3D.2018....
Die.Unglaublichen.2.2018.3D....
Die.Unglaublichen.2.2018.3D....
Sharknado.6.The.Last.One.3D....
Deep.Kleine.Helden.der.Tiefs...

Old_Stuff
Akte.X.S05.German.DTS.DL.108...
Akte.X.S04.German.DTS.DL.108...
Akte.X.S03.German.DTS.DL.108...
Dunkirk.1958.COMPLETE.BLURAY...
Das.Wunder.von.Manhattan.199...
The.Amazing.Spiderman.2.Rise...
Rise.of.the.Predator.2014.Ge...
Detective.Dee.und.das.Geheim...
Detective.Dee.Und.Der.Fluch....
Ghost.Rider.Spirit.of.Vengea...
Species.IV.Das.Erwachen.2007...
Species.IV.Das.Erwachen.2007...
Hotel.Transsilvanien.2012.Ge...
The.Dead.2010.German.DL.1080...
The.Dead.2.India.2013.German...

Filme
Man.nennt.mich.Bruce.1982.AM...
The.Happy.Prince.2018.German...
The.Happy.Prince.2018.German...
The.Happy.Prince.2018.German...
Goldfinger.1964.2160to1080p....
Ein.Lied.in.Gottes.Ohr.2017....
Mona.Lisas.Laecheln.2003.Ger...
Spinning.Man.Im.Dunkel.deine...
La.Femme.Nikita.1990.German....
Borgia.S01-S03.COMPLETE.Germ...
Nurse.Betty.2000.German.AC3D...
Die.Conners.S01.German.DD51....
Die.Conners.S01.German.DD51....
Absturz.in.der.Wildnis.aka.D...
Ralph.reichts.2012.German.Du...
MADIBA.S01.COMPLETE.German.D...
MADIBA.S01.COMPLETE.German.D...
Diablero.S01.COMPLETE.GERMAN...
Halloween.2018.German.AC3.21...
Inkubus.Stell.dich.deinem.Da...
Schmutzige.Dollars.1947.Uncu...
Ein.toedlicher.Traum.Somewhe...
American.Psycho.2000.UNRATED...
Just.Visiting.-.Mit.Vollgas....

 
 
The.Happy.Prince.2018.German.720p.BluRay.x264-Pl3X

Jahr: 2018
Genre: Biografie, Drama
Sprache: Deutsch DTS
Laufzeit: 1h 45mn
Bitrate: 3 132 Kbps
Format: MKV
Größe: 2.31 GiB
Release:

Beschreibung:

1897: Der wegen seiner Homosexualität verurteilte Schriftsteller Oscar Wilde (Rupert Everett) wird aus dem Gefängnis entlassen. Weil das Stigma, ein Schwuler zu sein, immer noch an ihm haftet, flüchtet er nach Paris ins Exil. Dort ertränkt der sensible Künstler seine Sorgen in Alkohol. Er säuft und feiert wie ein Bekloppter, bis er auf einmal mit leeren Taschen dasteht. Sein Liebhaber Lord Alfred Douglas (Colin Morgan), den jeder nur Bosie nennt, überredet ihn, gemeinsam mit ihm für einen längeren Zeitraum nach Neapel zu reisen. Wildes Freunde Reggie Turner (Colin Firth) und Robbie Ross (Edwin Thomas) warnen ihn vor dem jungen Bosie, der vorgibt, viel reicher zu sein als er ist. Als Oscar Wildes Ehefrau Constance (Emily Watson) die finanzielle Unterstützung des Dichters beendet, droht der finanzielle Ruin…



Complete name                            : pl3x-happyprince-720p.mkv
Format                                   : Matroska
Format version                           : Version 4 / Version 2
File size                                : 2.31 GiB
Duration                                 : 1h 45mn
Overall bit rate                         : 3 132 Kbps
Encoded date                             : UTC 2018-12-19 20:31:17
Writing application                      : mkvmerge v24.0.0 ('Beyond The Pale') 32-bit
Writing library                          : libebml v1.3.6 + libmatroska v1.4.9
DURATION                                 : 00:46:32.328000000
NUMBER_OF_FRAMES                         : 66
NUMBER_OF_BYTES                          : 2337
_STATISTICS_WRITING_APP                  : mkvmerge v24.0.0 ('Beyond The Pale') 32-bit
_STATISTICS_WRITING_DATE_UTC             : 2018-12-19 20:31:17
_STATISTICS_TAGS                         : BPS DURATION NUMBER_OF_FRAMES NUMBER_OF_BYTES

Video
ID                                       : 1
Format                                   : AVC
Format/Info                              : Advanced Video Codec
Format profile                           : High@L4.1
Format settings, CABAC                   : Yes
Format settings, ReFrames                : 5 frames
Codec ID                                 : V_MPEG4/ISO/AVC
Duration                                 : 1h 45mn
Bit rate                                 : 1 560 Kbps
Width                                    : 1 280 pixels
Height                                   : 536 pixels
Display aspect ratio                     : 2.40:1
Frame rate mode                          : Constant
Frame rate                               : 24.000 fps
Color space                              : YUV
Chroma subsampling                       : 4:2:0
Bit depth                                : 8 bits
Scan type                                : Progressive
Bits/(Pixel*Frame)                       : 0.095
Stream size                              : 1.15 GiB (50%)
Writing library                          : x264 core 157 r2935 545de2f
Encoding settings                        : cabac=1 / ref=5 / deblock=1:-1:-1 / analyse=0x3:0x113 / me=umh / subme=7 / psy=1 / psy_rd=1.00:0.00 / mixed_ref=1 / me_range=16 / chroma_me=1 / trellis=1 / 8x8dct=1 / cqm=0 / deadzone=21,11 / fast_pskip=0 / chroma_qp_offset=-2 / threads=12 / lookahead_threads=2 / sliced_threads=0 / nr=0 / decimate=1 / interlaced=0 / bluray_compat=0 / constrained_intra=0 / bframes=3 / b_pyramid=2 / b_adapt=1 / b_bias=0 / direct=3 / weightb=1 / open_gop=0 / weightp=2 / keyint=250 / keyint_min=24 / scenecut=40 / intra_refresh=0 / rc_lookahead=40 / rc=crf / mbtree=1 / crf=20.0 / qcomp=0.60 / qpmin=0 / qpmax=69 / qpstep=4 / ip_ratio=1.40 / aq=1:1.00
Default                                  : Yes
Forced                                   : No

Audio
ID                                       : 2
Format                                   : DTS
Format/Info                              : Digital Theater Systems
Mode                                     : 16
Format settings, Endianness              : Big
Codec ID                                 : A_DTS
Duration                                 : 1h 45mn
Bit rate mode                            : Constant
Bit rate                                 : 1 509 Kbps
Channel(s)                               : 6 channels
Channel positions                        : Front: L C R, Side: L R, LFE
Sampling rate                            : 48.0 KHz
Bit depth                                : 24 bits
Compression mode                         : Lossy
Stream size                              : 1.11 GiB (48%)
Language                                 : German
Default                                  : Yes
Forced                                   : No

Text
ID                                       : 3
Format                                   : UTF-8
Codec ID                                 : S_TEXT/UTF8
Codec ID/Info                            : UTF-8 Plain Text
Language                                 : German
Default                                  : Yes
Forced                                   : Yes


Download:
Share Online Share OnlineShare OnlineShare Online
 

Kommentare