HD-AREA wünscht Euch eine besinnliche Weihnachtszeit ;)

DNS SERVER AENDERNum der staatlichen Zensur zu umgehen. Sollten wir von eurem Provider geseprrt werden, nutzt den TOR BROWSER oder ändert euren DNS SERVER.

Filmwünsche können bei uns im Forum abgegeben werden

Wir Speichern Nicht




 
 
 
Top Releases
Smallfoot.Ein.eisigartiges.A...
Smallfoot.Ein.eisigartiges.A...
Smallfoot.Ein.eisigartiges.A...
Hubert.und.Staller.Eine.scho...
Hubert.und.Staller.Eine.scho...
Hubert.und.Staller.Eine.scho...
Bird.Box.Schliesse.deine.Aug...
Bird.Box.Schliesse.deine.Aug...
Halloween.German.DL.AC3.Dubb...
Halloween.German.DL.AC3.Dubb...

Cinedubs
Aquaman.2018.GERMAN.AC3.MD.7...
Bad.Spies.German.DL.AC3.Dubb...
Bad.Spies.German.DL.AC3.Dubb...
Bad.Times.at.the.El.Royale.G...
Bad.Times.at.the.El.Royale.G...
The.Guilty.German.DL.AC3.Dub...
The.Guilty.German.DL.AC3.Dub...
Johnny.English.Man.lebt.nur....
Johnny.English.Man.lebt.nur....
Johnny.English.Man.lebt.nur....

Neuerscheinungen 2017-18
Spinning.Man.Im.Dunkel.deine...
Amores.perros.2000.German.10...
Predator.Upgrade.2018.German...
Predator.Upgrade.2018.German...
Wilde.Kraeuter.2018.German.1...
Wilde.Kraeuter.2018.German.7...
Spinning.Man.Im.Dunkel.deine...
Spinning.Man.Im.Dunkel.deine...
They.Came.Together.2014.MULT...
The.Darkest.Minds.2018.MULTI...

XXX
ReadyOrNotHereICum.18.12.12....
Only-Opaques.17.06.26.Sophie...
RealWifeStories.18.12.11.Eva...
Submissived.18.12.10.Scarlet...
ProducersFun.18.03.25.Krissy...
LaurenPhillips.17.09.29.Carm...
Stunning18.18.12.10.Borya.E....
LaurenPhillips.17.07.07.How....
Spizoo.18.12.12.Sizi.Sev.Squ...
Nubiles.18.12.12.Elina.De.Le...
LaurenPhillips.17.09.22.Dres...
LaurenPhillips.17.09.15.Ravi...
Only-Opaques.17.08.03.Asha.E...
RKPrime.18.12.10.Stella.Raee...
SpyFam.18.12.10.Hannah.Hawth...
SexArt.18.12.12.Shrima.Malat...
Nubiles.18.12.11.Amber.Serra...
ProducersFun.18.08.04.Blair....
Nubiles.18.12.10.Dominka.Jul...
ProducersFun.18.03.20.Sophia...

3D
Smallfoot.3D.2018.COMPLETE.B...
Smallfoot.Ein.eisigartiges.A...
Skyscraper.3D.2018.German.DL...
Meg.3D.2018.MULTi.COMPLETE.B...
Meg.3D.2018.German.DL.1080p....
Gans.im.Glueck.3D.2018.MULTi...
The.Art.of.Flight.3D.2011.Ge...
The.End.Of.The.World.3D.2010...
The.First.Avenger.Civil.War....
Die.Unglaublichen.2.2018.3D....
Skyscraper.3D.2018.MULTi.COM...
Ant-Man.And.The.Wasp.3D.2018...
Ant.Man.and.the.Wasp.3D.2018...
Die.Unglaublichen.2.3D.2018....
Die.Unglaublichen.2.2018.3D....

Old_Stuff
Akte.X.S05.German.DTS.DL.108...
Akte.X.S04.German.DTS.DL.108...
Akte.X.S03.German.DTS.DL.108...
Dunkirk.1958.COMPLETE.BLURAY...
Das.Wunder.von.Manhattan.199...
The.Amazing.Spiderman.2.Rise...
Rise.of.the.Predator.2014.Ge...
Detective.Dee.und.das.Geheim...
Detective.Dee.Und.Der.Fluch....
Ghost.Rider.Spirit.of.Vengea...
Species.IV.Das.Erwachen.2007...
Species.IV.Das.Erwachen.2007...
Hotel.Transsilvanien.2012.Ge...
The.Dead.2010.German.DL.1080...
The.Dead.2.India.2013.German...

Filme
I.Still.See.You.Sie.lassen.d...
Monster.Hunt.2.2018.German.D...
Leanders.letzte.Reise.2017.G...
Leanders.letzte.Reise.2017.G...
Shapeshifter.2018.German.DL....
Mohawk.2017.German.DL.1080p....
Frankensteins.Kampf.gegen.di...
Frankensteins.Kampf.gegen.di...
Amores.perros.2000.German.72...
2.ungleiche.Freunde.2005.Ger...
Animal.House.1978.German.DL....
Citadel.Wo.das.Boese.wohnt.2...
Ein.ewiger.Kampf.Leben.und.K...
Ein.ewiger.Kampf.Leben.und.K...
Beziehungsweise.New.York.201...
Man.nennt.mich.Bruce.1982.AM...
The.Happy.Prince.2018.German...
The.Happy.Prince.2018.German...
The.Happy.Prince.2018.German...
Goldfinger.1964.2160to1080p....
Ein.Lied.in.Gottes.Ohr.2017....
Mona.Lisas.Laecheln.2003.Ger...
Spinning.Man.Im.Dunkel.deine...
La.Femme.Nikita.1990.German....

 
 
Spinning.Man.Im.Dunkel.deiner.Seele.2018.German.DTS.DL.1080p.BluRay.x265-UNFIrED

Jahr: 2018
Genre: Thriller
Sprache: Deutsch DTS | Englisch DTS
Laufzeit: 1h 40mn
Bitrate: 5 105 Kbps
Format: MKV
Größe: 3.57 GiB
Release:

Beschreibung:

Philosophieprofessor Evan Birch (Guy Pearce) führt ein Bilderbuch-Leben als treusorgender Ehemann und Vater. Eines Tages jedoch verschwindet eine seiner Studentinnen spurlos und wird schließlich tot aufgefunden. Der pragmatische Ermittler Malloy (Pierce Brosnan) beginnt in Birchs Umfeld zu ermitteln. Birch ist zunächst fassungslos angesichts dieser ungeheuerlichen Vorwürfe und auch seine Frau (Minnie Driver) vermutet lediglich ein Missverständnis. Doch die Beweislage verschärft sich zusehends und Birchs Erinnerungslücken machen ihn nur verdächtiger…Atmosphärisch dichter und extrem spannender Psychothriller mit erstklassiger Besetzung, der sich mit elementaren Fragen um die Philosophie des Verbrechens befasst. Nichts ist, wie es scheint!Bonusmaterial:Trailer; Bildergalerie



Complete name                            : unfired-spinningman-x265.mkv
Format                                   : Matroska
Format version                           : Version 2
File size                                : 3.57 GiB
Duration                                 : 1h 40mn
Overall bit rate                         : 5 105 Kbps
Encoded date                             : UTC 2018-12-20 15:44:54
Writing application                      : mkvmerge v24.0.0 ('Beyond The Pale') 64-bit
Writing library                          : libebml v1.3.6 + libmatroska v1.4.9
DURATION                                 : 00:56:31.334000000
NUMBER_OF_FRAMES                         : 6
NUMBER_OF_BYTES                          : 150
_STATISTICS_WRITING_APP                  : mkvmerge v24.0.0 ('Beyond The Pale') 64-bit
_STATISTICS_WRITING_DATE_UTC             : 2018-12-20 15:44:54
_STATISTICS_TAGS                         : BPS DURATION NUMBER_OF_FRAMES NUMBER_OF_BYTES

Video
ID                                       : 1
Format                                   : HEVC
Format/Info                              : High Efficiency Video Coding
Format profile                           : Main@L4.0
Codec ID                                 : V_MPEGH/ISO/HEVC
Duration                                 : 1h 40mn
Bit rate                                 : 1 985 Kbps
Width                                    : 1 920 pixels
Height                                   : 804 pixels
Display aspect ratio                     : 2.40:1
Frame rate mode                          : Constant
Frame rate                               : 24.000 fps
Color space                              : YUV
Chroma subsampling                       : 4:2:0
Bit depth                                : 8 bits
Bits/(Pixel*Frame)                       : 0.054
Stream size                              : 1.39 GiB (39%)
Writing library                          : x265 2.8+1-478bfe2b7673:[Windows][GCC 7.3.0][64 bit] 8bit+10bit+12bit
Encoding settings                        : cpuid=1111039 / frame-threads=16 / numa-pools=16 / wpp / no-pmode / no-pme / no-psnr / no-ssim / log-level=2 / input-csp=1 / input-res=1920x804 / interlace=0 / total-frames=144300 / level-idc=0 / high-tier=1 / uhd-bd=0 / ref=4 / no-allow-non-conformance / no-repeat-headers / annexb / no-aud / no-hrd / info / hash=0 / no-temporal-layers / open-gop / min-keyint=24 / keyint=250 / gop-lookahead=0 / bframes=4 / b-adapt=2 / b-pyramid / bframe-bias=0 / rc-lookahead=25 / lookahead-slices=4 / scenecut=40 / radl=0 / no-intra-refresh / ctu=64 / min-cu-size=8 / rect / no-amp / max-tu-size=32 / tu-inter-depth=1 / tu-intra-depth=1 / limit-tu=0 / rdoq-level=2 / dynamic-rd=0.00 / no-ssim-rd / signhide / no-tskip / nr-intra=0 / nr-inter=0 / no-constrained-intra / strong-intra-smoothing / max-merge=3 / limit-refs=3 / limit-modes / me=3 / subme=3 / merange=57 / temporal-mvp / weightp / no-weightb / no-analyze-src-pics / deblock=0:0 / sao / no-sao-non-deblock / rd=4 / no-early-skip / rskip / no-fast-intra / no-tskip-fast / no-cu-lossless / no-b-intra / no-splitrd-skip / rdpenalty=0 / psy-rd=2.00 / psy-rdoq=1.00 / no-rd-refine / no-lossless / cbqpoffs=0 / crqpoffs=0 / rc=crf / crf=19.9 / qcomp=0.60 / qpstep=4 / stats-write=0 / stats-read=0 / ipratio=1.40 / pbratio=1.30 / aq-mode=1 / aq-strength=1.00 / cutree / zone-count=0 / no-strict-cbr / qg-size=32 / no-rc-grain / qpmax=69 / qpmin=0 / no-const-vbv / sar=1 / overscan=0 / videoformat=5 / range=0 / colorprim=2 / transfer=2 / colormatrix=2 / chromaloc=0 / display-window=0 / max-cll=0,0 / min-luma=0 / max-luma=255 / log2-max-poc-lsb=8 / vui-timing-info / vui-hrd-info / slices=1 / no-opt-qp-pps / no-opt-ref-list-length-pps / no-multi-pass-opt-rps / scenecut-bias=0.05 / no-opt-cu-delta-qp / no-aq-motion / no-hdr / no-hdr-opt / no-dhdr10-opt / no-idr-recovery-sei / analysis-reuse-level=5 / scale-factor=0 / refine-intra=0 / refine-inter=0 / refine-mv=0 / no-limit-sao / ctu-info=0 / no-lowpass-dct / refine-mv-type=0 / copy-pic=1 / max-ausize-factor=1.0 / no-dynamic-refine / no-single-sei
Default                                  : Yes
Forced                                   : No

Audio #1
ID                                       : 2
Format                                   : DTS
Format/Info                              : Digital Theater Systems
Mode                                     : 16
Format settings, Endianness              : Big
Codec ID                                 : A_DTS
Duration                                 : 1h 40mn
Bit rate mode                            : Constant
Bit rate                                 : 1 509 Kbps
Channel(s)                               : 6 channels
Channel positions                        : Front: L C R, Side: L R, LFE
Sampling rate                            : 48.0 KHz
Bit depth                                : 24 bits
Compression mode                         : Lossy
Stream size                              : 1.06 GiB (30%)
Language                                 : German
Default                                  : Yes
Forced                                   : No

Audio #2
ID                                       : 3
Format                                   : DTS
Format/Info                              : Digital Theater Systems
Mode                                     : 16
Format settings, Endianness              : Big
Codec ID                                 : A_DTS
Duration                                 : 1h 40mn
Bit rate mode                            : Constant
Bit rate                                 : 1 509 Kbps
Channel(s)                               : 6 channels
Channel positions                        : Front: L C R, Side: L R, LFE
Sampling rate                            : 48.0 KHz
Bit depth                                : 24 bits
Compression mode                         : Lossy
Stream size                              : 1.06 GiB (30%)
Language                                 : English
Default                                  : No
Forced                                   : No

Text
ID                                       : 4
Format                                   : UTF-8
Codec ID                                 : S_TEXT/UTF8
Codec ID/Info                            : UTF-8 Plain Text
Title                                    : forced
Language                                 : German
Default                                  : Yes
Forced                                   : Yes


Download:
Share Online Share OnlineShare OnlineShare Online
 

Kommentare